ExtraTorrent.ee - The Largest Bittorent System

ExtraTorrent.ee > Categories > Movies torrents > Family torrents

Browse Movies torrents

Uyyala Jampala (2013) WEB HDRip 720p 1GB Telugu {pramod} torrent


Download torrent: Uyyala Jampala (2013) WEB HDRip 720p 1GB Telugu {pramod} torrent
Category: Categories > Movies torrents > Family torrents
Trackers:
3    View all torrent trackers >
Seeds: 358
Leechers: 1127
Health:
Torrent language: English English
Total Size: 948.31 MB
Number of files:
3     View torrent files >
Uploader: blames
Torrent added: 2014-01-26 14:33:20





Torrent Description
Uyyala Jampala (2013) WEB HDRip 720p 1GB Telugu {pramod}

Movie Info:
Uyyala Jampala is a 2013 Telugu film directed by Virinchi Varma. The film is presented by D Suresh Babu and is produced by Ram Mohan P, Akkineni Nagarjuna under Sunshine Cinema in association with Annapurna Studios and will star Avika Gor and Raj Tarun in lead roles.


Info:
Movie: Uyyala Jampala
Year: 2013
Audio: Telugu
Video: 1h 56min
Subtitles: N/A
Chapters: No
Quality: WEB HD
Resolution: 720p (1280 x 720)
Ripper: Team MEGA

Media Info:
General
Format : MPEG-4
Format profile : Base Media
Codec ID : isom
File size : 948 MiB
Duration : 1h 56mn
Overall bit rate mode : Variable
Overall bit rate : 1 135 Kbps
Movie name : Uyyala Jampala (2013)
Performer : Team MEGA
Genre : Telugu
Recorded date : 2013
Writing application : Lavf55.26.100
Comment : Team MEGA
Xtra : WM/Director

Video
ID : 1
Format : AVC
Format/Info : Advanced Video Codec
Format profile : Baseline@L3.1
Format settings, CABAC : No
Format settings, ReFrames : 3 frames
Format settings, GOP : M=1, N=120
Codec ID : avc1
Codec ID/Info : Advanced Video Coding
Duration : 1h 56mn
Bit rate : 1 100 Kbps
Width : 1 280 pixels
Height : 720 pixels
Display aspect ratio : 16:9
Frame rate mode : Constant
Frame rate : 24.000 fps
Color space : YUV
Chroma subsampling : 4:2:0
Bit depth : 8 bits
Scan type : Progressive
Bits/(Pixel*Frame) : 0.050
Stream size : 891 MiB (94%)
Writing library : x264 core 136 r63M 8fcf9de

Audio
ID : 2
Format : AAC
Format/Info : Advanced Audio Codec
Format profile : LC
Codec ID : 40
Duration : 1h 56mn
Bit rate mode : Variable
Bit rate : 64.0 Kbps
Maximum bit rate : 68.6 Kbps
Channel(s) : 2 channels
Channel positions : Front: L R
Sampling rate : 44.1 KHz
Compression mode : Lossy
Stream size : 53.4 MiB (6%)





Comments 
1
posted by (2014-01-26 14:34:00)
blames avatarhow to upload screen shots