ExtraTorrent.ee - The Largest Bittorent System

ExtraTorrent.ee > Categories > Movies torrents > Drama torrents

Browse Movies torrents

Make.Your.Move.2013.720p.BRRip.x264-Fastbet99 torrent


Download torrent: Make.Your.Move.2013.720p.BRRip.x264-Fastbet99 torrent
Category: Categories > Movies torrents > Drama torrents
Trackers:
8    View all torrent trackers >
Seeds: ---
Leechers: ---
Health:
Torrent language: English English
Total Size: 1.32 GB
Number of files:
4     View torrent files >
Uploader: Fastbet99
Torrent added: 2013-12-31 09:47:28





Torrent Info URL
http://www.imdb.com/title/tt1828959


Torrent Description
NPNC740.jpg
Make Your Move (2013)

IMDB Info : http://www.imdb.com/title/tt1828959

Source : WiKi (Thanks)
Complete name : Make.Your.Move.2013.720p.BRRip.x264-Fastbet99.mp4
Format : MPEG-4
Format profile : Base Media
Codec ID : isom
File size : 1.32 GiB
Duration : 1h 49mn
Overall bit rate mode : Variable
Overall bit rate : 1 715 Kbps

Video
ID : 1
Format : AVC
Format/Info : Advanced Video Codec
Format profile : High@L4.1
Format settings, CABAC : Yes
Format settings, ReFrames : 4 frames
Codec ID : avc1
Codec ID/Info : Advanced Video Coding
Duration : 1h 49mn
Bit rate : 1 617 Kbps
Maximum bit rate : 9 143 Kbps
Width : 1 280 pixels
Height : 690 pixels
Display aspect ratio : 1.85:1
Frame rate mode : Constant
Frame rate : 23.976 fps
Color space : YUV
Chroma subsampling : 4:2:0
Bit depth : 8 bits
Scan type : Progressive
Bits/(Pixel*Frame) : 0.076
Stream size : 1.24 GiB (94%)
Writing library : x264 core 138 r2358 9e941d1

Audio
ID : 2
Format : AAC
Format/Info : Advanced Audio Codec
Format profile : LC
Codec ID : 40
Duration : 1h 49mn
Bit rate mode : Variable
Bit rate : 96.0 Kbps
Maximum bit rate : 131 Kbps
Channel count : 2 channels
Channel positions : Front: L R
Sampling rate : 48.0 KHz
Compression mode : Lossy
Stream size : 75.4 MiB (6%)
Language : English
Encoder : Fastbet99
SxH6f9Z.jpg





Comments 
No comments