ExtraTorrent.ee - The Largest Bittorent System

ExtraTorrent.ee > Categories > Music torrents > Music Videos torrents

Browse Music torrents

Beyonce - Drunk in Love - (feat. Jay Z).2013 torrent


Download torrent: Beyonce - Drunk in Love - (feat. Jay Z).2013 torrent
Category: Categories > Music torrents > Music Videos torrents
Trackers:
2    View all torrent trackers >
Seeds: 121
Leechers: 108
Health:
Torrent language: English English
Total Size: 83.49 MB
Number of files:
1     View torrent files >
Uploader: boy74
Torrent added: 2013-12-13 15:05:41





Torrent Description
Beyonce - Drunk in Love - (feat. Jay Z).2013

From The New Album – Beyonce – BEYONCE.2013


Format : MPEG-4
Codec ID : M4V
File size : 83.5 MiB
Duration : 6mn 21s
Overall bit rate : 1 836 Kbps
Movie name : Drunk in Love (feat. Jay Z)
Album : BEYONCE
Album/Performer : Beyonce
Track name/Position : 1
Track name/Total : 1
Performer : Beyonce
Genre : R&B
Recorded date : 2013


Video
ID : 1
Format : AVC
Format/Info : Advanced Video Codec
Format profile : Baseline@L3.0
Format settings, CABAC : No
Format settings, ReFrames : 1 frame
Format settings, GOP : M=1, N=53
Codec ID : avc1
Codec ID/Info : Advanced Video Coding
Duration : 6mn 21s
Bit rate mode : Variable
Bit rate : 1 579 Kbps
Width : 640 pixels
Height : 480 pixels
Display aspect ratio : 16:9
Frame rate mode : Constant
Frame rate : 23.976 fps
Color space : YUV
Chroma subsampling : 4:2:0
Bit depth : 8 bits
Scan type : Progressive
Bits/(Pixel*Frame) : 0.214
Stream size : 71.8 MiB (86%)
Language : English


Audio
ID : 2
Format : AAC
Format/Info : Advanced Audio Codec
Format profile : LC
Codec ID : 40
Duration : 6mn 21s
Bit rate mode : Constant
Bit rate : 256 Kbps
Channel(s) : 2 channels
Channel positions : Front: L R
Sampling rate : 44.1 KHz
Compression mode : Lossy
Stream size : 11.5 MiB (14%)
Language : English

yTdQP.jpg





Comments 
No comments