ExtraTorrent.ee - The Largest Bittorent System

ExtraTorrent.ee > Categories > Music torrents > Bollywood torrents

Browse Music torrents

Blue Eyes Full Video Song HD 720P YoYo Honey Singh _ Blockbuster Song Of 2013 By {Team Vicky_Group} torrent


Download torrent: Blue Eyes Full Video Song HD 720P YoYo Honey Singh _ Blockbuster Song Of 2013 By {Team Vicky_Group} torrent
Category: Categories > Music torrents > Bollywood torrents
Trackers:
12    View all torrent trackers >
Seeds: 4
Leechers: 6
Health:
Torrent language: Hindi Hindi
Total Size: 54.98 MB
Number of files:
13     View torrent files >
Uploader: Vicky_Group
Torrent added: 2013-11-08 17:29:35





Torrent Description
!!..Blue Eyes Full Video Song HD 720P YoYo Honey Singh Blockbuster Song Of 2013..!!


image.jpg


My_Logo_Team_Vicky_Group.jpg


cooltext1204396109.png

Song: Blue Eyes

Singar: YoYo Honey Singh

Music: YoYo Honey Singh

Format: HD720


Format : MPEG-4
Format profile : Base Media / Version 2
Codec ID : mp42
File size : 54.1 MiB
Duration : 4mn 2s
Overall bit rate mode : Variable
Overall bit rate : 1 869 Kbps


Video
ID : 1
Format : AVC
Format/Info : Advanced Video Codec
Format profile : High@L3.1
Format settings, CABAC : Yes
Format settings, ReFrames : 1 frame
Format settings, GOP : M=1, N=60
Codec ID : avc1
Codec ID/Info : Advanced Video Coding
Duration : 4mn 2s
Bit rate : 1 674 Kbps
Maximum bit rate : 4 361 Kbps
Width : 1 280 pixels
Height : 720 pixels
Display aspect ratio : 16:9
Frame rate mode : Constant
Frame rate : 23.976 fps
Color space : YUV
Chroma subsampling : 4:2:0
Bit depth : 8 bits
Scan type : Progressive
Bits/(Pixel*Frame) : 0.076
Stream size : 48.4 MiB (90%)
Tagged date : UTC 2013-11-06 10:31:30

Audio
ID : 2
Format : AAC
Format/Info : Advanced Audio Codec
Format profile : LC
Codec ID : 40
Duration : 4mn 2s
Bit rate mode : Variable
Bit rate : 192 Kbps
Maximum bit rate : 201 Kbps
Channel(s) : 2 channels
Channel positions : Front: L R
Sampling rate : 44.1 KHz
Compression mode : Lossy
Stream size : 5.56 MiB (10%)


cooltext1158631813.gif


Thumbal.jpg


S_01.jpg

S_02.jpg

S_03.jpg

S_04.jpg

S_05.jpg

S_06.jpg


cooltext1182430551.png

Seed.gif


xlu6ncek.gif





Comments 
1
posted by (2013-11-08 17:31:39)
Vicky_Group avatarEnjoy & Seed Plzzzz..