ExtraTorrent.ee - The Largest Bittorent System

ExtraTorrent.ee > Categories > Music torrents > Music Videos torrents

Browse Music torrents

Saamne Hai Savera - Bullett Raja HD 1080p -AshishRocks- torrent


Download torrent: Saamne Hai Savera - Bullett Raja HD 1080p -AshishRocks- torrent
Category: Categories > Music torrents > Music Videos torrents
Trackers:
9    View all torrent trackers >
Seeds: 211
Leechers: 525
Health:
Torrent language: Hindi Hindi
Total Size: 74.76 MB
Number of files:
1     View torrent files >
Uploader: ashishp199
Torrent added: 2013-10-25 05:58:36





Torrent Description
General
Complete name : Saamne Hai Savera - Bullet Raja HD 1080p -AshishRocks-
Format : MPEG-4
Format profile : Base Media / Version 2
Codec ID : mp42
File size : 74.8 MiB
Duration : 2mn 38s
Overall bit rate mode : Variable
Overall bit rate : 3 968 Kbps
Encoded date : UTC 2013-10-23 10:38:14
Tagged date : UTC 2013-10-23 10:38:14
Video #1
ID : 1
Format : AVC
Format/Info : Advanced Video Codec
Format profile : High@L4.0
Format settings, CABAC : Yes
Format settings, ReFrames : 2 frames
Codec ID : avc1
Codec ID/Info : Advanced Video Coding
Duration : 2mn 37s
Bit rate : 3 714 Kbps
Width : 1 920 pixels
Height : 1 080 pixels
Display aspect ratio : 16:9
Frame rate mode : Constant
Frame rate : 25.000 fps
Color space : YUV
Chroma subsampling : 4:2:0
Bit depth : 8 bits
Scan type : Progressive
Bits/(Pixel*Frame) : 0.072
Stream size : 69.9 MiB (94%)
Encoded date : UTC 2013-10-23 10:38:14
Tagged date : UTC 2013-10-23 10:38:14
Audio #2
ID : 2
Format : AAC
Format/Info : Advanced Audio Codec
Format profile : LC
Codec ID : 40
Duration : 2mn 38s
Bit rate mode : Variable
Bit rate : 254 Kbps
Channel(s) : 2 channels
Channel positions : Front: L R
Sampling rate : 44.1 KHz
Compression mode : Lossy
Stream size : 4.78 MiB (6%)
Encoded date : UTC 2013-10-23 10:37:57
Tagged date : UTC 2013-10-23 10:37:57





Comments 
1
posted by (2013-10-25 08:08:21)
No avatar