ExtraTorrent.ee - The Largest Bittorent System

ExtraTorrent.ee > Categories > Movies torrents > Bollywood torrents

Browse Movies torrents

(RSVP) Ronde Sare Viyah Picho 2013 Punjabi Movie MCDVDSCR RIP-GOPI SAHI-PDR torrent


Download torrent: (RSVP) Ronde Sare Viyah Picho 2013 Punjabi Movie MCDVDSCR RIP-GOPI SAHI-PDR torrent
Category: Categories > Movies torrents > Bollywood torrents
Trackers:
14    View all torrent trackers >
Seeds: 335
Leechers: 2449
Health:
Torrent language: Hindi Hindi
Total Size: 553.16 MB
Number of files:
10     View torrent files >
Uploader: jattonhunt
Torrent added: 2013-10-15 17:16:25





Torrent Description
s7j6.jpg
hvq4.jpg
Video
ID : 1
Format : AVC
Format/Info : Advanced Video Codec
Format profile : Main@L4.0
Format settings, CABAC : Yes
Format settings, ReFrames : 4 frames
Codec ID : V_MPEG4/ISO/AVC
Duration : 2h 6mn
Bit rate : 500 Kbps
Width : 576 pixels
Height : 240 pixels
Display aspect ratio : 2.40:1
Frame rate mode : Constant
Frame rate : 29.970 fps
Color space : YUV
Chroma subsampling : 4:2:0
Bit depth : 8 bits
Scan type : Progressive
Bits/(Pixel*Frame) : 0.121
Stream size : 446 MiB (82%)
Writing library : x264 core 130
Language : English
Default : Yes
Forced : No
Color primaries : BT.601 NTSC
Transfer characteristics : BT.709
Matrix coefficients : BT.601

Audio
ID : 2
Format : AC-3
Format/Info : Audio Coding 3
Mode extension : CM (complete main)
Format settings, Endianness : Big
Codec ID : A_AC3
Duration : 2h 6mn
Bit rate mode : Constant
Bit rate : 96.0 Kbps
Channel count : 1 channel
Channel positions : Front: C
Sampling rate : 48.0 KHz
Bit depth : 16 bits
Compression mode : Lossy
Stream size : 86.7 MiB (16%)
Default : Yes
Forced : No

0m95.jpg
hq2a.png
zl2e.png
n6tk.png
4t3h.png





Comments 
1
posted by (2013-10-15 17:31:39)
billa09 avatarThanx a lot.


2
posted by (2013-10-15 18:30:16)
No avatarsir, please upload young malang, ashiqui not allowed and RSVP punjabi movies in hd quality


3
posted by (2013-10-15 18:30:45)
No avatarThankx but need some more better print..