ExtraTorrent.ee - The Largest Bittorent System

ExtraTorrent.ee > Categories > Movies torrents > Bollywood torrents

Browse Movies torrents

Time Please [ 2013 ] - Marathi Movies - DVDRip - x264 - AC-3 - 1CD - Cool_Candy torrent


Download torrent: Time Please [ 2013 ] - Marathi Movies - DVDRip - x264 - AC-3 - 1CD - Cool_Candy torrent
Category: Categories > Movies torrents > Bollywood torrents
Trackers:
15    View all torrent trackers >
Seeds: 413
Leechers: 907
Health:
Torrent language: Hindi Hindi
Total Size: 579.55 MB
Number of files:
17     View torrent files >
Uploader: cool_candy
Torrent added: 2013-10-04 16:31:27





Torrent Info URL
http://www.imdb.com/title/tt3021806


Torrent Description
Time Please [ 2013 ] - Marathi Movies - DVDRip - x264 - AC-3 - 1CD - Cool_Candy







Time_Please_marathi_Movie.jpg








info_2.jpg








General

Unique ID : 239944735102291032204306059239239727288 (0xB483ACCEF9130EBD0BFCF9E715CC38B8)

Complete name : Time Please [ 2013 ] - Marathi Movies - DVDRip - x264 - AC-3 - 1CD - Cool_Candy.mkv
Format : Matroska
Format version : Version 2
File size : 577 MiB
Duration : 2h 11mn
Overall bit rate : 612 Kbps
Writing application : Lavf53.6.0
Writing library : Lavf53.6.0


Video


ID : 1
Format : AVC
Format/Info : Advanced Video Codec
Codec ID : V_MPEG4/ISO/AVC
Duration : 2h 11mn
Bit rate : 504 Kbps
Width : 640 pixels
Height : 272 pixels
Display aspect ratio : 2.35:1
Frame rate mode : Constant
Frame rate : 23.976 fps
Bits/(Pixel*Frame) : 0.121
Stream size : 475 MiB (82%)
Default : Yes
Forced : No


Audio


ID : 2
Format : AC-3
Format/Info : Audio Coding 3
Mode extension : CM (complete main)
Format settings, Endianness : Big
Codec ID : A_AC3
Duration : 2h 11mn
Bit rate mode : Constant
Bit rate : 96.0 Kbps
Channel(s) : 2 channels
Channel positions : Front: L R
Sampling rate : 48.0 KHz
Bit depth : 16 bits
Compression mode : Lossy
Stream size : 90.6 MiB (16%)
Default : Yes
Forced : No






Screenshot_2.png




Time_Please_01.png Time_Please_02.png Time_Please_03.png Time_Please_04.png

Time_Please_05.png Time_Please_06.png Time_Please_07.png Time_Please_08.png

Time_Please_09.png Time_Please_10.png Time_Please_11.png








Code:
SAMPLE http://www.maxmirror.com/download/1KRJTNNP https://next-d.copy.com/mN2UTV9ROslf








facebook.jpg







cooltext11232451.png






enjoy.gif






Comments 
1
posted by (2013-10-04 19:14:03)
No avatarFake please dont download its only audio file nothing else.


2
posted by (2013-10-05 08:55:42)
No avatarPlease upload marathi movie "Narbachi Wadi"


3
posted by (2013-10-05 13:23:08)
cool_candy avatarNOT A FAKE............u play for vlc player................ok ....nileshnpol


4
posted by (2013-10-08 10:18:15)
No avatarAwesome movie ..... awesome print ...10/10


5
posted by (2013-10-08 15:51:04)
cool_candy avatarthanx..............rajashk