ExtraTorrent.ee - The Largest Bittorent System

ExtraTorrent.ee > Categories > Music torrents > Bollywood torrents

Browse Music torrents

Dhating Naach 1080p-Phata Poster Nikla Hero-Video Song torrent


Download torrent: Dhating Naach 1080p-Phata Poster Nikla Hero-Video Song torrent
Category: Categories > Music torrents > Bollywood torrents
Trackers:
8    View all torrent trackers >
Seeds: 58
Leechers: 5
Health:
Torrent language: Hindi Hindi
Total Size: 71.76 MB
Number of files:
1     View torrent files >
Uploader: dhangali
Torrent added: 2013-09-23 12:17:16





Torrent Description
General
Format : MPEG-4
File size : 71.8 MiB
Duration : 2mn 24s
Overall bit rate : 4 153 Kbps


Video
Format : MPEG-4 Visual
Bit rate : 3 954 Kbps
Maximum bit rate : 18.8 Mbps
Width : 1 920 pixels
Height : 816 pixels
Frame rate : 25.000 fps
Color space : YUV
Chroma subsampling : 4:2:0
Bit depth : 8 bits
Scan type : Progressive
Compression mode : Lossy
Stream size : 68.3 MiB (95%)



Audio
Format : AAC
Duration : 2mn 24s
Bit rate : 198 Kbps
Maximum bit rate : 251 Kbps
Channel(s) : 2 channels
Channel positions : Front: L R
Sampling rate : 44.1 KHz
Compression mode : Lossy
Stream size : 3.43 MiB (5%)





Comments 
1
posted by (2013-09-24 06:30:18)
abidmajeed avatarno screens bai


2
posted by (2013-09-24 17:05:19)
No avatarno probs, can be downloaded n watchable. Thnxs for uploading bro


3
posted by (2013-09-27 07:35:27)
Multiplayer avatarscreens shot plzz